<?xml version="1.0" standalone="no"?>
<!DOCTYPE svg PUBLIC "-//W3C//DTD SVG 1.1//EN" "http://www.w3.org/Graphics/SVG/1.1/DTD/svg11.dtd" >
<svg xmlns="http://www.w3.org/2000/svg">
<metadata>Generated by IcoMoon</metadata>
<defs>
<font id="bwg" horiz-adv-x="1024">
<font-face units-per-em="1024" ascent="1011.2" descent="-12.8" />
<missing-glyph horiz-adv-x="1024" />
<glyph unicode="&#x20;" horiz-adv-x="512" d="" />
<glyph unicode="&#xe900;" glyph-name="angle-down" d="M463.726 263.168l-419.352 404.724c-12.331 11.733-20.001 28.267-20.001 46.592s7.67 34.859 19.974 46.567l0.027 0.025c12.544 11.952 29.563 19.305 48.299 19.305s35.755-7.354 48.327-19.332l-0.028 0.027 371.029-358.156 371.029 357.912c12.544 11.952 29.563 19.305 48.299 19.305s35.755-7.354 48.327-19.332l-0.028 0.027c12.331-11.733 20.001-28.267 20.001-46.592s-7.67-34.859-19.974-46.567l-0.027-0.025-419.352-404.724c-12.536-11.948-29.547-19.3-48.274-19.3s-35.738 7.352-48.302 19.327l0.028-0.027z" />
<glyph unicode="&#xe901;" glyph-name="angle-down-sm" d="M458.654 361.131l-251.611 251.611c-7.423 7.417-12.015 17.667-12.015 28.989 0 22.632 18.347 40.979 40.979 40.979 11.31 0 21.55-4.582 28.965-11.991v0l222.647-222.696 222.647 222.598c7.413 7.413 17.653 11.998 28.965 11.998 22.623 0 40.962-18.339 40.962-40.962 0-11.311-4.585-21.552-11.998-28.965l-251.611-251.611c-7.412-7.413-17.653-11.998-28.965-11.998s-21.552 4.585-28.965 11.998v0z" />
<glyph unicode="&#xe902;" glyph-name="angle-left" d="M263.851 560.274l419.352 419.352c12.359 12.365 29.436 20.013 48.299 20.013 37.714 0 68.287-30.573 68.287-68.287 0-18.851-7.638-35.918-19.989-48.275l-371.078-371.078 371.029-371.029c12.361-12.361 20.006-29.437 20.006-48.299 0-37.724-30.581-68.305-68.305-68.305-18.862 0-35.938 7.645-48.299 20.006l-419.352 419.352c-12.355 12.354-19.997 29.422-19.997 48.274s7.642 35.92 19.997 48.274v0z" />
<glyph unicode="&#xe903;" glyph-name="angle-left-sm" d="M353.378 516.584l251.611 251.611c7.417 7.423 17.667 12.015 28.989 12.015 22.632 0 40.979-18.347 40.979-40.979 0-11.31-4.582-21.55-11.991-28.965v0l-222.696-222.647 222.598-222.647c7.413-7.413 11.998-17.653 11.998-28.965 0-22.623-18.339-40.962-40.962-40.962-11.311 0-21.552 4.585-28.965 11.998l-251.611 251.611c-7.413 7.412-11.998 17.653-11.998 28.965s4.585 21.552 11.998 28.965v0z" />
<glyph unicode="&#xe904;" glyph-name="angle-right" d="M760.149 463.726l-419.352-419.352c-12.359-12.365-29.436-20.013-48.299-20.013-37.714 0-68.287 30.573-68.287 68.287 0 18.851 7.638 35.918 19.989 48.275l371.078 371.078-371.029 371.029c-12.361 12.361-20.006 29.437-20.006 48.299 0 37.724 30.581 68.305 68.305 68.305 18.862 0 35.938-7.645 48.299-20.006l419.352-419.352c12.355-12.354 19.997-29.422 19.997-48.274s-7.642-35.92-19.997-48.274v0z" />
<glyph unicode="&#xe905;" glyph-name="angle-right-sm" d="M662.869 458.654l-251.611-251.611c-7.417-7.423-17.667-12.015-28.989-12.015-22.632 0-40.979 18.347-40.979 40.979 0 11.31 4.582 21.55 11.991 28.965v0l222.696 222.647-222.598 222.647c-7.413 7.413-11.998 17.653-11.998 28.965 0 22.623 18.339 40.962 40.962 40.962 11.311 0 21.552-4.585 28.965-11.998l251.611-251.611c7.413-7.412 11.998-17.653 11.998-28.965s-4.585-21.552-11.998-28.965v0z" />
<glyph unicode="&#xe906;" glyph-name="angle-up" d="M560.274 760.832l419.352-404.724c12.331-11.733 20.001-28.267 20.001-46.592s-7.67-34.859-19.974-46.567l-0.027-0.025c-12.544-11.952-29.563-19.305-48.299-19.305s-35.755 7.354-48.327 19.332l0.028-0.027-371.029 358.156-371.029-357.912c-12.544-11.952-29.563-19.305-48.299-19.305s-35.755 7.354-48.327 19.332l0.028-0.027c-12.331 11.733-20.001 28.267-20.001 46.592s7.67 34.859 19.974 46.567l0.027 0.025 419.352 404.724c12.536 11.948 29.547 19.3 48.274 19.3s35.738-7.352 48.302-19.327l-0.028 0.027z" />
<glyph unicode="&#xe907;" glyph-name="angle-up-sm" d="M516.584 670.622l251.611-251.611c7.423-7.417 12.015-17.667 12.015-28.989 0-22.632-18.347-40.979-40.979-40.979-11.31 0-21.55 4.582-28.965 11.991v0l-222.647 222.696-222.647-222.598c-7.413-7.413-17.653-11.998-28.965-11.998-22.623 0-40.962 18.339-40.962 40.962 0 11.311 4.585 21.552 11.998 28.965l251.611 251.611c7.412 7.413 17.653 11.998 28.965 11.998s21.552-4.585 28.965-11.998v0z" />
<glyph unicode="&#xe908;" glyph-name="arrow-down" d="M457.143 948.809v-764.489l-209.042 209.14c-8.142 6.923-18.776 11.133-30.394 11.133-25.988 0-47.055-21.067-47.055-47.055 0-11.618 4.211-22.253 11.189-30.461l-0.056 0.067 289.109-289.061c8.504-8.447 20.221-13.668 33.158-13.668s24.654 5.221 33.161 13.67l289.058 289.058c6.923 8.142 11.133 18.776 11.133 30.394 0 25.988-21.067 47.055-47.055 47.055-11.618 0-22.253-4.211-30.461-11.189l0.067 0.056-208.994-209.14v764.489c0.093 1.11 0.146 2.403 0.146 3.708 0 25.988-21.067 47.055-47.055 47.055s-47.055-21.067-47.055-47.055c0-1.305 0.053-2.597 0.157-3.875l-0.011 0.168z" />
<glyph unicode="&#xe909;" glyph-name="arrow-left" d="M948.809 566.857h-764.489l209.14 209.042c6.923 8.142 11.133 18.776 11.133 30.394 0 25.988-21.067 47.055-47.055 47.055-11.618 0-22.253-4.211-30.461-11.189l0.067 0.056-289.061-289.109c-8.447-8.504-13.668-20.221-13.668-33.158s5.221-24.654 13.67-33.161l289.058-289.058c8.142-6.923 18.776-11.133 30.394-11.133 25.988 0 47.055 21.067 47.055 47.055 0 11.618-4.211 22.253-11.189 30.461l0.056-0.067-209.14 208.994h764.489c1.11-0.093 2.403-0.146 3.708-0.146 25.988 0 47.055 21.067 47.055 47.055s-21.067 47.055-47.055 47.055c-1.305 0-2.597-0.053-3.875-0.157l0.168 0.011z" />
<glyph unicode="&#xe90a;" glyph-name="arrow-right" d="M75.191 457.143h764.489l-209.14-209.042c-6.923-8.142-11.133-18.776-11.133-30.394 0-25.988 21.067-47.055 47.055-47.055 11.618 0 22.253 4.211 30.461 11.189l-0.067-0.056 289.061 289.109c8.447 8.504 13.668 20.221 13.668 33.158s-5.221 24.654-13.67 33.161l-289.058 289.058c-8.142 6.923-18.776 11.133-30.394 11.133-25.988 0-47.055-21.067-47.055-47.055 0-11.618 4.211-22.253 11.189-30.461l-0.056 0.067 209.14-208.994h-764.489c-1.11 0.093-2.403 0.146-3.708 0.146-25.988 0-47.055-21.067-47.055-47.055s21.067-47.055 47.055-47.055c1.305 0 2.597 0.053 3.875 0.157l-0.168-0.011z" />
<glyph unicode="&#xe90b;" glyph-name="arrows-in" d="M625.323 431.738h284.331c0.137 0.002 0.299 0.003 0.461 0.003 11.13 0 21.182-4.615 28.347-12.035l0.011-0.011c7.439-7.245 12.054-17.359 12.054-28.55s-4.615-21.305-12.045-28.542l-0.009-0.008-91.624-91.429 138.874-138.923c3.948-3.647 6.411-8.85 6.411-14.629s-2.464-10.982-6.398-14.616l-0.013-0.012-72.363-72.216c-3.658-3.899-8.829-6.342-14.571-6.388h-0.008c-0.006 0-0.014 0-0.022 0-5.767 0-10.962 2.454-14.595 6.375l-0.012 0.013-138.874 138.923-91.38-91.429c-7.245-7.439-17.359-12.054-28.55-12.054s-21.305 4.615-28.542 12.045l-0.008 0.009c-7.429 7.114-12.046 17.113-12.046 28.19 0 0.118 0.001 0.236 0.002 0.353v-0.018 284.379c0.272 22.296 18.274 40.298 40.544 40.57h0.026zM398.629 592.262h-284.233c-0.065 0-0.142-0.001-0.219-0.001-11.129 0-21.18 4.614-28.345 12.033l-0.011 0.011c-7.431 7.168-12.045 17.213-12.045 28.335 0 0.084 0 0.168 0.001 0.252v-0.013c-0.001 0.1-0.001 0.217-0.001 0.335 0 11.077 4.617 21.076 12.032 28.177l0.014 0.013 91.38 91.38-138.874 138.923c-3.934 3.653-6.388 8.854-6.388 14.628 0 0 0 0 0 0v0c0 0 0 0 0 0 0 5.774 2.454 10.975 6.375 14.617l0.013 0.011 72.363 72.314c3.669 3.911 8.86 6.357 14.623 6.388h0.006c0.006 0 0.014 0 0.022 0 5.767 0 10.962-2.454 14.595-6.375l0.012-0.013 138.923-138.923 91.38 91.429c7.114 7.429 17.113 12.046 28.191 12.046 0.135 0 0.27-0.001 0.404-0.002h-0.021c0.1 0.001 0.217 0.001 0.335 0.001 11.077 0 21.076-4.617 28.177-12.032l0.013-0.014c7.429-7.114 12.046-17.113 12.046-28.19 0-0.118-0.001-0.236-0.002-0.353v0.018-284.331c0.001-0.114 0.002-0.249 0.002-0.384 0-11.077-4.617-21.076-12.032-28.177l-0.014-0.013c-7.118-7.459-17.137-12.096-28.238-12.096-0.17 0-0.339 0.001-0.508 0.003h0.026zM431.738 398.677v-284.331c0.002-0.137 0.003-0.299 0.003-0.461 0-11.13-4.615-21.182-12.035-28.347l-0.011-0.011c-7.245-7.439-17.359-12.054-28.55-12.054s-21.305 4.615-28.542 12.045l-0.008 0.009-91.429 91.624-138.923-138.874c-3.647-3.948-8.85-6.411-14.629-6.411s-10.982 2.464-14.616 6.398l-0.012 0.013-72.216 72.363c-3.899 3.658-6.342 8.829-6.388 14.571v0.008c0 0.006 0 0.014 0 0.022 0 5.767 2.454 10.962 6.375 14.595l0.013 0.012 138.923 138.874-91.429 91.38c-7.439 7.245-12.054 17.359-12.054 28.55s4.615 21.305 12.045 28.542l0.009 0.008c7.114 7.429 17.113 12.046 28.19 12.046 0.118 0 0.236-0.001 0.353-0.002h284.361c22.296-0.272 40.298-18.274 40.57-40.544v-0.026zM592.262 625.371v284.331c-0.002 0.137-0.003 0.299-0.003 0.461 0 11.13 4.615 21.182 12.035 28.347l0.011 0.011c7.245 7.439 17.359 12.054 28.55 12.054s21.305-4.615 28.542-12.045l0.008-0.009 91.429-91.624 138.923 138.874c3.647 3.948 8.85 6.411 14.629 6.411s10.982-2.464 14.616-6.398l0.012-0.013 72.216-72.363c3.899-3.658 6.342-8.829 6.388-14.571v-0.008c0-0.006 0-0.014 0-0.022 0-5.767-2.454-10.962-6.375-14.595l-0.013-0.012-138.923-138.874 91.429-91.38c7.439-7.245 12.054-17.359 12.054-28.55s-4.615-21.305-12.045-28.542l-0.009-0.008c-7.114-7.429-17.113-12.046-28.19-12.046-0.118 0-0.236 0.001-0.353 0.002h-284.361c-22.296 0.272-40.298 18.274-40.57 40.544v0.026z" />
<glyph unicode="&#xe90c;" glyph-name="arrows-out" d="M431.933 338.554c0-0.006 0-0.014 0-0.022 0-5.767-2.454-10.962-6.375-14.595l-0.013-0.012-138.971-138.971 91.429-91.429c7.264-7.336 11.751-17.432 11.751-28.576 0-22.33-18.019-40.452-40.31-40.618h-284.444c-22.312 0.298-40.321 18.307-40.618 40.59v284.456c-0.001 0.088-0.001 0.193-0.001 0.298 0 22.298 18.076 40.375 40.375 40.375 11.284 0 21.487-4.629 28.813-12.092l91.435-91.435 138.971 138.971c3.647 3.948 8.85 6.411 14.629 6.411s10.982-2.464 14.616-6.398l0.012-0.013 72.411-72.411c3.905-3.642 6.339-8.818 6.339-14.562 0-0.023 0-0.047 0-0.070v0.004zM999.668 958.952v-284.428c0.001-0.088 0.001-0.193 0.001-0.298 0-22.298-18.076-40.375-40.375-40.375-11.284 0-21.487 4.629-28.813 12.092l-91.435 91.435-138.971-138.971c-3.647-3.948-8.85-6.411-14.629-6.411s-10.982 2.464-14.616 6.398l-0.012 0.013-72.411 72.411c-3.948 3.647-6.411 8.85-6.411 14.629s2.464 10.982 6.398 14.616l0.013 0.012 138.971 138.971-91.429 91.429c-7.264 7.336-11.751 17.432-11.751 28.576 0 22.33 18.019 40.452 40.31 40.618h284.444c22.312-0.298 40.321-18.307 40.618-40.59v-0.028zM338.603 592.067c-0.006 0-0.014 0-0.022 0-5.767 0-10.962 2.454-14.595 6.375l-0.012 0.013-138.679 138.923-91.672-91.331c-7.341-7.292-17.456-11.8-28.624-11.8-22.347 0-40.479 18.046-40.618 40.361v284.344c-0.001 0.114-0.002 0.249-0.002 0.384 0 11.077 4.617 21.076 12.032 28.177l0.014 0.013c7.115 7.429 17.114 12.047 28.191 12.047 0.152 0 0.304-0.001 0.455-0.003h284.454c0.114 0.001 0.249 0.002 0.384 0.002 11.077 0 21.076-4.617 28.177-12.032l0.013-0.014c7.4-7.111 11.998-17.091 11.998-28.144 0-0.151-0.001-0.302-0.003-0.453v0.023c0.001-0.114 0.002-0.249 0.002-0.384 0-11.077-4.617-21.076-12.032-28.177l-0.014-0.013-91.429-91.429 138.971-138.971c3.948-3.647 6.411-8.85 6.411-14.629s-2.464-10.982-6.398-14.616l-0.013-0.012-72.411-72.411c-3.639-3.876-8.796-6.291-14.517-6.291-0.039 0-0.079 0-0.118 0h0.006zM959 24.332h-284.428c-0.088-0.001-0.193-0.001-0.298-0.001-22.298 0-40.375 18.076-40.375 40.375 0 11.284 4.629 21.487 12.092 28.813l0.006 0.006 91.429 91.721-138.923 138.971c-3.948 3.647-6.411 8.85-6.411 14.629s2.464 10.982 6.398 14.616l0.013 0.012 72.46 72.070c3.647 3.948 8.85 6.411 14.629 6.411s10.982-2.464 14.616-6.398l0.012-0.013 138.971-138.971 91.234 91.429c7.114 7.429 17.113 12.046 28.191 12.046 0.135 0 0.27-0.001 0.404-0.002h-0.021c0.114 0.001 0.249 0.002 0.384 0.002 11.077 0 21.076-4.617 28.177-12.032l0.013-0.014c7.429-7.114 12.046-17.113 12.046-28.19 0-0.118-0.001-0.236-0.002-0.353v0.018-284.428c0.001-0.114 0.002-0.249 0.002-0.384 0-11.077-4.617-21.076-12.032-28.177l-0.014-0.013c-7.122-7.486-17.159-12.143-28.283-12.143-0.103 0-0.205 0-0.307 0.001h0.016z" />
<glyph unicode="&#xe90d;" glyph-name="arrow-up" d="M566.857 75.191v764.489l209.042-209.14c8.142-6.923 18.776-11.133 30.394-11.133 25.988 0 47.055 21.067 47.055 47.055 0 11.618-4.211 22.253-11.189 30.461l0.056-0.067-289.109 289.061c-8.504 8.447-20.221 13.668-33.158 13.668s-24.654-5.221-33.161-13.67l-289.058-289.058c-6.923-8.142-11.133-18.776-11.133-30.394 0-25.988 21.067-47.055 47.055-47.055 11.618 0 22.253 4.211 30.461 11.189l-0.067-0.056 208.994 209.14v-764.489c-0.093-1.11-0.146-2.403-0.146-3.708 0-25.988 21.067-47.055 47.055-47.055s47.055 21.067 47.055 47.055c0 1.305-0.053 2.597-0.157 3.875l0.011-0.168z" />
<glyph unicode="&#xe90e;" glyph-name="bell" d="M393.947 136.923h-226.597c-20.99 0.042-39.237 11.741-48.617 28.966l-0.145 0.291c-4.042 7.496-6.418 16.405-6.418 25.869 0 11.626 3.585 22.414 9.709 31.321l-0.122-0.187 109.519 160.914v200.948c0 0.004 0 0.008 0 0.013 0 134.744 95.497 247.184 222.502 273.329l1.803 0.31v61.781c0 30.243 24.517 54.76 54.76 54.76v0c30.243 0 54.76-24.517 54.76-54.76v0-61.781c128.808-26.455 224.305-138.895 224.305-273.639 0-0.004 0-0.009 0-0.013v0.001-200.753l109.519-160.914c5.998-8.722 9.579-19.511 9.579-31.137 0-9.462-2.372-18.37-6.555-26.162l0.145 0.296c-9.517-17.523-27.769-29.227-48.758-29.257h-226.601c-15.984-49.923-61.963-85.44-116.244-85.48h-0.005c-0.079 0-0.173 0-0.266 0-54.249 0-100.221 35.435-116.034 84.422l-0.241 0.863z" />
<glyph unicode="&#xe90f;" glyph-name="bell-half-o" d="M921.795 238.933l-102.4 151.162v195.048c-1.294 140.131-94.445 258.159-222.087 296.87l-2.217 0.578v39.010c0.002 0.218 0.003 0.476 0.003 0.735 0 45.378-36.786 82.164-82.164 82.164-0.258 0-0.516-0.001-0.774-0.004h0.039c-46.396-0.997-84.078-36.986-87.751-82.577l-0.021-0.318v-39.010c-129.86-39.288-223.011-157.317-224.304-297.297l-0.001-0.15v-190.171l-102.4-151.162c-9.222-12.653-14.754-28.509-14.754-45.657 0-9.876 1.835-19.323 5.183-28.020l-0.181 0.534c0.273-29.513 24.125-53.365 53.612-53.638h0.026c9.752 0 14.629-4.876 24.381-4.876h204.8c15.494-46.335 57.105-79.728 106.927-82.878l0.349-0.018c9.752 0 19.505-4.876 34.133-4.876v0c0.007 0 0.016 0 0.024 0 60.289 0 112.272 35.558 136.123 86.846l0.386 0.925h204.8c31.046 1.619 57.793 18.626 72.916 43.485l0.227 0.401c5.451 10.839 8.642 23.621 8.642 37.149 0 17.005-5.043 32.832-13.715 46.067l0.197-0.32zM873.033 180.419c-4.535-8.754-13.527-14.633-23.891-14.633-0.172 0-0.344 0.002-0.516 0.005h-248.66l-4.876-19.505c-12.893-36.907-47.235-62.986-87.723-63.39h-14.678v858.21c3.214 3.102 7.594 5.013 12.421 5.013 0.778 0 1.545-0.050 2.296-0.146l-0.089 0.009c0.421 0.027 0.913 0.043 1.408 0.043 12.711 0 23.016-10.304 23.016-23.016 0-0.496-0.016-0.987-0.047-1.475l0.003 0.067v-87.771l24.381-4.876c114.519-24.026 199.366-123.929 199.924-243.749v-209.737l112.152-170.667c9.752-4.876 9.752-14.629 4.876-24.381z" />
<glyph unicode="&#xe910;" glyph-name="bell-o" d="M922.283 234.057l-102.4 151.162v195.048c-1.294 140.131-94.445 258.159-222.087 296.87l-2.217 0.578v39.010c0.002 0.218 0.003 0.476 0.003 0.735 0 45.378-36.786 82.164-82.164 82.164-0.258 0-0.516-0.001-0.774-0.004h0.039c-46.396-0.997-84.078-36.986-87.751-82.577l-0.021-0.318v-39.010c-129.86-39.288-223.011-157.317-224.304-297.297l-0.001-0.15v-190.171l-102.4-151.162c-9.646-13.21-15.433-29.772-15.433-47.685 0-14.737 3.917-28.559 10.767-40.482l-0.21 0.396c13.606-26.262 40.58-43.899 71.672-43.899 0.517 0 1.033 0.005 1.548 0.015l-0.077-0.001h204.8c23.993-49.475 73.839-82.982 131.511-82.982 1.766 0 3.525 0.031 5.277 0.094l-0.254-0.007c0.007 0 0.016 0 0.024 0 60.289 0 112.272 35.558 136.123 86.846l0.386 0.925h204.8c31.046 1.619 57.793 18.626 72.916 43.485l0.227 0.401c8.012 10.767 12.827 24.326 12.827 39.010s-4.815 28.243-12.952 39.185l0.125-0.175zM873.521 175.543c-4.535-8.754-13.527-14.633-23.891-14.633-0.172 0-0.344 0.002-0.516 0.005h-248.66l-4.876-19.505c-12.893-36.907-47.235-62.986-87.723-63.39h-0.049c-1.574-0.104-3.412-0.163-5.264-0.163-39.385 0-72.538 26.682-82.369 62.955l-0.138 0.598-4.876 19.505h-248.686c-0.146-0.003-0.318-0.004-0.49-0.004-10.364 0-19.355 5.879-23.82 14.484l-0.070 0.149c-2.301 4.235-3.654 9.274-3.654 14.629s1.353 10.393 3.735 14.793l-0.081-0.164 117.029 170.667v204.8c0.557 119.88 85.405 219.783 198.295 243.523l1.629 0.287 24.381 4.876v87.771c0 13.465 10.916 24.381 24.381 24.381s24.381-10.916 24.381-24.381v0-87.771l24.381-4.876c114.519-24.026 199.366-123.929 199.924-243.749v-209.737l112.152-170.667c9.752-4.876 9.752-14.629 4.876-24.381z" />
<glyph unicode="&#xe911;" glyph-name="caret-down" d="M1016.917 658.347c4.45-6.882 7.095-15.292 7.095-24.32s-2.645-17.438-7.203-24.498l0.108 0.178-459.008-329.301c-10.116-14.772-26.895-24.34-45.909-24.34s-35.793 9.567-45.787 24.15l-0.123 0.189-459.008 329.301c-4.441 6.884-7.080 15.294-7.080 24.32s2.639 17.436 7.188 24.499l-0.108-0.179c9.822 14.743 26.377 24.325 45.17 24.325 0.26 0 0.52-0.002 0.779-0.005h917.977c0.233 0.004 0.509 0.006 0.785 0.006 18.78 0 35.321-9.584 45-24.127l0.124-0.198z" />
<glyph unicode="&#xe912;" glyph-name="caret-up" d="M7.083 365.653c-4.45 6.882-7.095 15.292-7.095 24.32s2.645 17.438 7.203 24.498l-0.108-0.178 459.008 329.301c10.116 14.772 26.895 24.34 45.909 24.34s35.793-9.567 45.787-24.15l0.123-0.189 459.008-329.301c4.441-6.884 7.080-15.294 7.080-24.32s-2.639-17.436-7.188-24.499l0.108 0.179c-9.822-14.743-26.377-24.325-45.17-24.325-0.26 0-0.52 0.002-0.779 0.005h-917.977c-0.233-0.004-0.509-0.006-0.785-0.006-18.78 0-35.321 9.584-45 24.127l-0.124 0.198z" />
<glyph unicode="&#xe913;" glyph-name="chevron-down-sm" d="M486.498 465.969l-202.216 202.167c-9.819 9.010-22.965 14.532-37.4 14.532s-27.582-5.522-37.441-14.569l0.041 0.037c-9.010-9.819-14.532-22.965-14.532-37.4s5.522-27.582 14.569-37.441l-0.037 0.041 241.030-238.202c9.819-9.010 22.965-14.532 37.4-14.532s27.582 5.522 37.441 14.569l-0.041-0.037 238.202 238.202c9.636 9.19 15.849 21.896 16.574 36.052l0.005 0.129c0.010 0.359 0.016 0.781 0.016 1.204 0 14.018-6.458 26.528-16.561 34.717l-0.083 0.065c-9.819 9.010-22.965 14.532-37.4 14.532s-27.582-5.522-37.441-14.569l0.041 0.037z" />
<glyph unicode="&#xe914;" glyph-name="chevron-left" horiz-adv-x="1018" d="M413.236 513.818l353.856 353.856c15.76 17.182 25.418 40.182 25.418 65.439s-9.658 48.257-25.482 65.511l0.065-0.071c-17.182 15.76-40.182 25.418-65.439 25.418s-48.257-9.658-65.511-25.482l0.071 0.065-416.871-421.718c-15.76-17.182-25.418-40.182-25.418-65.439s9.658-48.257 25.482-65.511l-0.065 0.071 416.871-416.871c16.003-16.826 38.119-27.708 62.773-29.073l0.243-0.011c0.646-0.019 1.406-0.030 2.169-0.030 24.522 0 46.406 11.296 60.732 28.968l0.114 0.146c15.76 17.182 25.418 40.182 25.418 65.439s-9.658 48.257-25.482 65.511l0.065-0.071z" />
<glyph unicode="&#xe915;" glyph-name="chevron-left-sm" d="M466.651 488.692l202.167 202.216c9.010 9.819 14.532 22.965 14.532 37.4s-5.522 27.582-14.569 37.441l0.037-0.041c-9.819 9.010-22.965 14.532-37.4 14.532s-27.582-5.522-37.441-14.569l0.041 0.037-238.202-241.030c-9.010-9.819-14.532-22.965-14.532-37.4s5.522-27.582 14.569-37.441l-0.037 0.041 238.202-238.202c9.19-9.636 21.896-15.849 36.052-16.574l0.129-0.005c0.359-0.010 0.781-0.016 1.204-0.016 14.018 0 26.528 6.458 34.717 16.561l0.065 0.083c9.010 9.819 14.532 22.965 14.532 37.4s-5.522 27.582-14.569 37.441l0.037-0.041z" />
<glyph unicode="&#xe916;" glyph-name="chevron-right" horiz-adv-x="1018" d="M604.705 510.182l-353.856-353.856c-15.76-17.182-25.418-40.182-25.418-65.439s9.658-48.257 25.482-65.511l-0.065 0.071c17.182-15.76 40.182-25.418 65.439-25.418s48.257 9.658 65.511 25.482l-0.071-0.065 416.871 421.718c15.76 17.182 25.418 40.182 25.418 65.439s-9.658 48.257-25.482 65.511l0.065-0.071-416.871 416.871c-16.003 16.826-38.119 27.708-62.773 29.073l-0.243 0.011c-0.646 0.019-1.406 0.030-2.169 0.030-24.522 0-46.406-11.296-60.732-28.968l-0.114-0.146c-15.76-17.182-25.418-40.182-25.418-65.439s9.658-48.257 25.482-65.511l-0.065 0.071z" />
<glyph unicode="&#xe917;" glyph-name="chevron-right-sm" d="M558.031 486.546l-202.167-202.216c-9.010-9.819-14.532-22.965-14.532-37.4s5.522-27.582 14.569-37.441l-0.037 0.041c9.819-9.010 22.965-14.532 37.4-14.532s27.582 5.522 37.441 14.569l-0.041-0.037 238.202 241.030c9.010 9.819 14.532 22.965 14.532 37.4s-5.522 27.582-14.569 37.441l0.037-0.041-238.202 238.202c-9.19 9.636-21.896 15.849-36.052 16.574l-0.129 0.005c-0.359 0.010-0.781 0.016-1.204 0.016-14.018 0-26.528-6.458-34.717-16.561l-0.065-0.083c-9.010-9.819-14.532-22.965-14.532-37.4s5.522-27.582 14.569-37.441l-0.037 0.041z" />
<glyph unicode="&#xe918;" glyph-name="chevron-up-sm" d="M488.692 557.349l202.216-202.167c9.819-9.010 22.965-14.532 37.4-14.532s27.582 5.522 37.441 14.569l-0.041-0.037c9.010 9.819 14.532 22.965 14.532 37.4s-5.522 27.582-14.569 37.441l0.037-0.041-241.030 238.202c-9.819 9.010-22.965 14.532-37.4 14.532s-27.582-5.522-37.441-14.569l0.041 0.037-238.202-238.202c-9.636-9.19-15.849-21.896-16.574-36.052l-0.005-0.129c-0.010-0.359-0.016-0.781-0.016-1.204 0-14.018 6.458-26.528 16.561-34.717l0.083-0.065c9.819-9.010 22.965-14.532 37.4-14.532s27.582 5.522 37.441 14.569l-0.041-0.037z" />
<glyph unicode="&#xe919;" glyph-name="circle" d="M999.619 512c0-269.305-218.314-487.619-487.619-487.619s-487.619 218.314-487.619 487.619c0 269.305 218.314 487.619 487.619 487.619s487.619-218.314 487.619-487.619z" />
<glyph unicode="&#xe91a;" glyph-name="circle-half" d="M999.619 512c0 0.202 0 0.441 0 0.68 0 253.076-194.35 460.759-441.94 481.939l-1.793 0.124h-43.886c-10.984 3.218-23.602 5.070-36.653 5.070-2.544 0-5.072-0.070-7.582-0.209l0.349 0.015c-249.499-25.252-442.73-233.714-443.733-487.517v-0.102c-0.004-0.733-0.006-1.6-0.006-2.468 0-249.44 189.187-454.693 431.901-480.097l2.087-0.177c13.446-3.225 28.884-5.074 44.754-5.074 3.124 0 6.232 0.072 9.322 0.213l-0.438-0.016c2.878-0.196 6.237-0.308 9.622-0.308 13.922 0 27.401 1.892 40.196 5.434l-1.056-0.249c247.053 23.22 438.861 229.583 438.861 480.744 0 0.703-0.002 1.405-0.005 2.107v-0.108zM512 97.524v828.952c228.909 0 414.476-185.567 414.476-414.476s-185.567-414.476-414.476-414.476v0z" />
<glyph unicode="&#xe91b;" glyph-name="circle-o" d="M512 24.381c-269.305 0-487.619 218.314-487.619 487.619s218.314 487.619 487.619 487.619c269.305 0 487.619-218.314 487.619-487.619v0c-0.801-268.981-218.637-486.817-487.542-487.619h-0.077zM512 926.476c-228.909 0-414.476-185.567-414.476-414.476s185.567-414.476 414.476-414.476c228.909 0 414.476 185.567 414.476 414.476v0c0 0.102 0 0.222 0 0.341 0 228.72-185.414 414.135-414.135 414.135-0.12 0-0.24 0-0.361 0h0.019z" />
<glyph unicode="&#xe91c;" glyph-name="comment-square" d="M853.333 975.238h-682.667c-94.134-0.304-170.363-76.532-170.667-170.637v-426.696c0.304-94.134 76.532-170.363 170.637-170.667h0.029v-128.049c0.311-23.326 19.293-42.115 42.663-42.115 11.646 0 22.202 4.666 29.901 12.23l157.934 157.934h452.169c94.134 0.304 170.363 76.532 170.667 170.637v426.696c-0.304 94.134-76.532 170.363-170.637 170.667h-0.029z" />
<glyph unicode="&#xe91d;" glyph-name="compress" d="M431.982 406.089v-284.477c0.002-0.137 0.003-0.299 0.003-0.461 0-11.13-4.615-21.182-12.035-28.347l-0.011-0.011c-7.253-7.442-17.375-12.058-28.574-12.058s-21.321 4.616-28.566 12.049l-0.008 0.008-91.429 91.672-138.971-138.923c-3.653-3.934-8.854-6.388-14.629-6.388s-10.975 2.454-14.617 6.376l-0.012 0.013-72.363 72.363c-3.948 3.647-6.411 8.85-6.411 14.629s2.464 10.982 6.398 14.616l0.013 0.012 138.971 138.971-91.38 91.331c-7.442 7.253-12.058 17.375-12.058 28.574s4.616 21.321 12.049 28.566l0.008 0.008c7.114 7.429 17.113 12.046 28.19 12.046 0.118 0 0.236-0.001 0.353-0.002h284.41c22.333-0.271 40.369-18.29 40.667-40.59v-0.028zM592.018 632.832v284.331c0 0.065-0.001 0.142-0.001 0.219 0 11.129 4.614 21.18 12.033 28.345l0.011 0.011c7.176 7.431 17.227 12.045 28.356 12.045 0.077 0 0.154 0 0.231-0.001h-0.012c0.1 0.001 0.217 0.001 0.335 0.001 11.077 0 21.076-4.617 28.177-12.032l0.013-0.014 91.429-91.429 138.971 138.923c3.638 3.933 8.825 6.388 14.586 6.388 0.015 0 0.030 0 0.045 0h-0.002c0 0 0 0 0 0 5.774 0 10.975-2.454 14.617-6.375l0.011-0.013 72.363-72.363c3.911-3.669 6.357-8.86 6.388-14.623v-0.006c-0.019-5.771-2.468-10.966-6.376-14.618l-0.012-0.011-138.971-138.971 91.429-91.429c7.429-7.114 12.046-17.113 12.046-28.191 0-0.135-0.001-0.27-0.002-0.404v0.021c0.001-0.1 0.001-0.217 0.001-0.335 0-11.077-4.617-21.076-12.032-28.177l-0.014-0.013c-7.114-7.429-17.113-12.046-28.19-12.046-0.118 0-0.236 0.001-0.353 0.002h-284.41c-0.114-0.001-0.249-0.002-0.384-0.002-11.077 0-21.076 4.617-28.177 12.032l-0.013 0.014c-7.459 7.118-12.096 17.137-12.096 28.238 0 0.17 0.001 0.339 0.003 0.508v-0.026z" />
<glyph unicode="&#xe91e;" glyph-name="double-left" horiz-adv-x="1022" d="M87.097 477.526l437.627-460.107c8.689-9.338 21.047-15.161 34.766-15.161s26.077 5.823 34.739 15.132l0.027 0.029c8.903 9.533 14.37 22.375 14.37 36.493s-5.467 26.96-14.399 36.524l0.029-0.031-402.934 423.613 402.885 423.905c7.73 9.216 12.425 21.204 12.425 34.289 0 14.22-5.545 27.144-14.591 36.729l0.024-0.026c-8.673 9.266-20.978 15.040-34.632 15.040-12.741 0-24.307-5.027-32.823-13.207l0.016 0.015-437.627-460.399c-8.7-9.573-14.027-22.348-14.027-36.367 0-14.070 5.366-26.887 14.162-36.516l-0.038 0.042zM422.397 477.526l437.627-460.107c8.689-9.338 21.047-15.161 34.766-15.161s26.077 5.823 34.739 15.132l0.027 0.029c8.903 9.533 14.37 22.375 14.37 36.493s-5.467 26.96-14.399 36.524l0.029-0.031-402.934 423.613 402.885 423.905c7.73 9.216 12.425 21.204 12.425 34.289 0 14.22-5.545 27.144-14.591 36.729l0.024-0.026c-8.673 9.266-20.978 15.040-34.632 15.040-12.741 0-24.307-5.027-32.823-13.207l0.016 0.015-437.627-460.399c-8.7-9.573-14.027-22.348-14.027-36.367 0-14.070 5.366-26.887 14.162-36.516l-0.038 0.042z" />
<glyph unicode="&#xe91f;" glyph-name="double-right" horiz-adv-x="1022" d="M934.713 546.474l-437.627 460.107c-8.689 9.338-21.047 15.161-34.766 15.161s-26.077-5.823-34.739-15.132l-0.027-0.029c-8.903-9.533-14.37-22.375-14.37-36.493s5.467-26.96 14.399-36.524l-0.029 0.031 402.934-423.613-402.885-423.905c-7.73-9.216-12.425-21.204-12.425-34.289 0-14.22 5.545-27.144 14.591-36.729l-0.024 0.026c8.673-9.266 20.978-15.040 34.632-15.040 12.741 0 24.307 5.027 32.823 13.207l-0.016-0.015 437.627 460.399c8.7 9.573 14.027 22.348 14.027 36.367 0 14.070-5.366 26.887-14.162 36.516l0.038-0.042zM599.413 546.474l-437.627 460.107c-8.689 9.338-21.047 15.161-34.766 15.161s-26.077-5.823-34.739-15.132l-0.027-0.029c-8.903-9.533-14.37-22.375-14.37-36.493s5.467-26.96 14.399-36.524l-0.029 0.031 402.934-423.613-402.885-423.905c-7.73-9.216-12.425-21.204-12.425-34.289 0-14.22 5.545-27.144 14.591-36.729l-0.024 0.026c8.673-9.266 20.978-15.040 34.632-15.040 12.741 0 24.307 5.027 32.823 13.207l-0.016-0.015 437.627 460.399c8.7 9.573 14.027 22.348 14.027 36.367 0 14.070-5.366 26.887-14.162 36.516l0.038-0.042z" />
<glyph unicode="&#xe920;" glyph-name="download" d="M989.867 341.333c-9.835 9.080-23.031 14.648-37.527 14.648-0.521 0-1.041-0.007-1.559-0.022l0.076 0.002c-29.513-0.273-53.365-24.125-53.638-53.612v-185.321h-789.943v185.295c-0.273 29.513-24.125 53.365-53.612 53.638h-0.026c-29.513-0.273-53.365-24.125-53.638-53.612v-238.959c-0.013-0.447-0.020-0.973-0.020-1.501 0-14.49 5.569-27.68 14.683-37.546l-0.034 0.037c9.828-9.080 23.018-14.649 37.509-14.649 0.528 0 1.054 0.007 1.578 0.022l-0.077-0.002h902.095c29.513 0.273 53.365 24.125 53.638 53.612v238.959c-2.563 15.289-9.527 28.632-19.528 39.034l0.023-0.024zM477.867 282.819l9.752-9.752c5.542-2.141 11.954-3.382 18.657-3.382 13.424 0 25.686 4.977 35.042 13.186l-0.060-0.052 238.933 253.562c8.816 9.26 14.239 21.819 14.239 35.646 0 28.573-23.163 51.736-51.736 51.736-13.826 0-26.386-5.424-35.667-14.259l0.021 0.020-146.286-156.038v507.124c-0.273 29.513-24.125 53.365-53.612 53.638h-0.026c-0.954 0.059-2.070 0.092-3.193 0.092-29.998 0-54.422-23.867-55.319-53.648l-0.002-0.083v-502.248l-141.41 156.038c-10.891 9.006-23.985 15.765-38.334 19.361l-0.676 0.143c-13.309-0.611-25.236-6.073-34.151-14.645l0.017 0.017c-11.7-10.041-19.066-24.846-19.066-41.371 0-14.137 5.39-27.014 14.228-36.69l-0.038 0.042z" />
<glyph unicode="&#xe921;" glyph-name="expand" d="M24.381 79.482v284.477c-0.002 0.137-0.003 0.299-0.003 0.461 0 11.13 4.615 21.182 12.035 28.347l0.011 0.011c7.253 7.442 17.375 12.058 28.574 12.058s21.321-4.616 28.566-12.049l0.008-0.008 91.429-91.672 138.971 138.923c3.653 3.934 8.854 6.388 14.629 6.388s10.975-2.454 14.617-6.376l0.012-0.013 72.363-72.363c3.948-3.647 6.411-8.85 6.411-14.629s-2.464-10.982-6.398-14.616l-0.013-0.012-138.971-138.971 91.38-91.331c7.442-7.253 12.058-17.375 12.058-28.574s-4.616-21.321-12.049-28.566l-0.008-0.008c-7.114-7.429-17.113-12.046-28.19-12.046-0.118 0-0.236 0.001-0.353 0.002h-284.41c-22.333 0.271-40.369 18.29-40.667 40.59v0.028zM999.717 958.854v-284.331c0-0.065 0.001-0.142 0.001-0.219 0-11.129-4.614-21.18-12.033-28.345l-0.011-0.011c-7.176-7.431-17.227-12.045-28.356-12.045-0.077 0-0.154 0-0.231 0.001h0.012c-0.1-0.001-0.217-0.001-0.335-0.001-11.077 0-21.076 4.617-28.177 12.032l-0.013 0.014-91.429 91.429-138.971-138.923c-3.638-3.933-8.825-6.388-14.586-6.388-0.015 0-0.030 0-0.045 0h0.002c0 0 0 0 0 0-5.774 0-10.975 2.454-14.617 6.375l-0.011 0.013-72.363 72.363c-3.911 3.669-6.357 8.86-6.388 14.623v0.006c0.019 5.771 2.468 10.966 6.376 14.618l0.012 0.011 138.971 138.971-91.429 91.429c-7.429 7.114-12.046 17.113-12.046 28.191 0 0.135 0.001 0.27 0.002 0.404v-0.021c-0.001 0.1-0.001 0.217-0.001 0.335 0 11.077 4.617 21.076 12.032 28.177l0.014 0.013c7.114 7.429 17.113 12.046 28.19 12.046 0.118 0 0.236-0.001 0.353-0.002h284.41c0.114 0.001 0.249 0.002 0.384 0.002 11.077 0 21.076-4.617 28.177-12.032l0.013-0.014c7.459-7.118 12.096-17.137 12.096-28.238 0-0.17-0.001-0.339-0.003-0.508v0.026z" />
<glyph unicode="&#xe922;" glyph-name="facebook-square" d="M853.333 0h-218.405v325.339h146.578v149.699h-146.578v59.928c0 22.869 14.921 39.936 28.379 39.936h118.248v149.65h-118.004c-93.143-8.972-165.383-86.838-165.383-181.577 0-3.521 0.1-7.018 0.297-10.49l-0.022 0.481v-57.88h-107.618v-149.699h107.276v-325.388h-327.436c-94.506 1.152-170.675 78.032-170.675 172.703 0 0.587 0.003 1.174 0.009 1.759l-0.001-0.089v675.352c-0.005 0.482-0.008 1.051-0.008 1.621 0 94.66 76.174 171.53 170.568 172.653l0.106 0.001h682.667c94.506-1.152 170.674-78.032 170.674-172.703 0-0.553-0.003-1.105-0.008-1.657l0.001 0.084v-675.352c0.005-0.482 0.008-1.052 0.008-1.622 0-94.68-76.162-171.571-170.563-172.75l-0.111-0.001z" />
<glyph unicode="&#xe923;" glyph-name="flag" d="M915.554 941.251c-7.12 3.035-15.404 4.8-24.1 4.8-17.385 0-33.122-7.052-44.508-18.452l-0.001-0.001c-36.976-36.857-87.994-59.646-144.335-59.646s-107.359 22.789-144.341 59.651l0.005-0.005c-59.769 59.611-142.255 96.47-233.35 96.47s-173.581-36.859-233.357-96.477l0.007 0.007c-11.387-11.362-18.432-27.072-18.432-44.427 0-0.050 0-0.1 0-0.149v0.008-818.274c0-34.767 28.184-62.952 62.952-62.952s62.952 28.184 62.952 62.952v0 286.476c34.334 27.023 78.198 43.34 125.874 43.34 56.356 0 107.386-22.801 144.369-59.68l-0.005 0.005c59.769-59.611 142.255-96.47 233.35-96.47s173.581 36.859 233.357 96.477l-0.007-0.007c11.388 11.377 18.432 27.099 18.432 44.467 0 0.018 0 0.037 0 0.055v-0.003 503.613c-0.021 26.113-15.937 48.503-38.595 58.018l-0.415 0.155z" />
<glyph unicode="&#xe924;" glyph-name="flag-haif-o" d="M902.095 943.055c-10.974 4.017-23.643 6.34-36.856 6.34-26.855 0-51.468-9.597-70.597-25.549l0.177 0.143c-28.709-28.687-68.359-46.429-112.152-46.429s-83.443 17.742-112.153 46.43l0.001-0.001c-63.542 61.867-150.439 100.022-246.248 100.022s-182.706-38.155-246.326-100.098l0.078 0.076c-17.794-16.773-28.962-40.407-29.257-66.652v-762.105c-0.023-0.77-0.036-1.676-0.036-2.584 0-51.168 41.48-92.648 92.648-92.648 0.013 0 0.025 0 0.038 0h4.874c25.825 0.659 49.465 9.497 68.558 24.008l-0.292-0.213c17.794 16.773 28.962 40.407 29.257 66.652v252.494c23.489 14.533 51.971 23.146 82.465 23.146 44.023 0 83.853-17.95 112.571-46.93l0.012-0.012c64.43-61.898 152.106-100.016 248.686-100.016s184.257 38.119 248.806 100.132l-0.121-0.115c17.783 16.762 28.947 40.376 29.257 66.601l0.001 0.057v471.479c-2.707 39.231-27.921 71.956-62.717 85.541l-0.673 0.231zM887.467 385.804c0.084-0.639 0.132-1.379 0.132-2.129 0-4.743-1.913-9.039-5.009-12.159l0.001 0.001c-51.261-48.849-120.812-78.906-197.383-78.906-51.059 0-98.997 13.365-140.505 36.786l1.431-0.742v523.898c38.735-27.85 87.123-44.539 139.408-44.539 62.934 0 120.221 24.179 163.078 63.754l-0.163-0.149c9.752 9.752 19.505 9.752 24.381 4.876 7.646-3.537 13.17-10.528 14.607-18.914l0.021-0.151v-471.528z" />
<glyph unicode="&#xe925;" glyph-name="flag-o" d="M896.878 943.055c-10.72 4.009-23.108 6.329-36.037 6.329-26.315 0-50.385-9.61-68.892-25.513l0.14 0.118c-27.748-28.65-66.569-46.434-109.544-46.434s-81.795 17.784-109.505 46.394l-0.039 0.040c-61.448 61.786-146.517 100.024-240.518 100.024s-179.071-38.238-240.503-100.009l-0.015-0.015c-17.448-16.928-28.345-40.523-28.574-66.663v-762.094c-0.047-1.093-0.073-2.374-0.073-3.663 0-50.224 40.432-91.005 90.522-91.569h4.929c25.293 0.696 48.394 9.54 66.91 23.986l-0.253-0.19c17.437 16.917 28.332 40.492 28.574 66.612v252.534c22.884 14.509 50.75 23.122 80.628 23.122 43.172 0 82.143-17.982 109.834-46.865l0.051-0.054c62.321-61.826 148.152-100.032 242.907-100.032s180.587 38.207 242.93 100.055l-0.023-0.023c17.437 16.917 28.332 40.492 28.574 66.612v471.524c-2.403 38.961-27.083 71.609-61.365 85.535l-0.66 0.237zM882.59 385.804c0.076-0.613 0.119-1.322 0.119-2.042 0-4.768-1.906-9.091-4.999-12.248l0.003 0.003c-49.71-48.613-117.803-78.608-192.902-78.608s-143.192 29.995-192.953 78.658l0.051-0.050c-40.982 41.453-97.851 67.124-160.715 67.124-52.781 0-101.335-18.096-139.797-48.423l0.48 0.365-14.287-9.752v-285.745c0-4.876-4.876-9.752-9.752-14.287 0-9.752-4.876-9.752-9.752-9.752-0.406-0.026-0.88-0.041-1.358-0.041-12.415 0-22.479 10.064-22.479 22.479 0 0.478 0.015 0.952 0.044 1.422l-0.003-0.064v762.441c-0.076 0.613-0.119 1.322-0.119 2.042 0 4.768 1.906 9.091 4.999 12.248l-0.003-0.003c48.917 49.1 116.236 79.838 190.733 80.991l0.219 0.003c74.724-0.282 142.168-31.22 190.452-80.882l0.060-0.062c41.303-39.787 97.564-64.296 159.549-64.296s118.246 24.509 159.621 64.364l-0.072-0.069c14.287 9.752 23.796 9.752 28.574 4.876 7.512-3.612 12.909-10.587 14.267-18.919l0.020-0.147v-471.528z" />
<glyph unicode="&#xe926;" glyph-name="google-plus-square" d="M853.236 0h-682.667c-94.506 1.152-170.674 78.032-170.674 172.703 0 0.57 0.003 1.139 0.008 1.708l-0.001-0.087v675.352c-0.005 0.481-0.008 1.050-0.008 1.62 0 94.722 76.251 171.634 170.719 172.703l0.101 0.001h682.667c94.506-1.152 170.674-78.032 170.674-172.703 0-0.57-0.003-1.139-0.008-1.708l0.001 0.087v-675.352c0.005-0.481 0.008-1.050 0.008-1.62 0-94.722-76.251-171.634-170.719-172.703l-0.101-0.001zM356.401 762.539c-106.050-1.825-196.28-67.64-233.879-160.412l-0.617-1.722c-12.344-29.618-19.514-64.025-19.514-100.108 0-71.324 28.015-136.105 73.642-183.938l-0.1 0.106c46.971-47.375 112.076-76.704 184.032-76.704 0.324 0 0.648 0.001 0.972 0.002h-0.050c0.892-0.012 1.946-0.019 3.002-0.019 68.983 0 131.211 28.921 175.22 75.298l0.1 0.106c34.905 39.207 57.675 89.904 62.020 145.771l0.054 0.856c0 0.536 0 1.122 0 1.658l0.634 52.029c0.052 0.483 0.081 1.042 0.081 1.609s-0.029 1.127-0.087 1.678l0.006-0.069-2.731 17.798c-1.334 9.181-9.137 16.159-18.575 16.189h-217.335c-10.398-0.137-18.774-8.598-18.774-19.016 0-0.052 0-0.104 0.001-0.156v0.008-76.702c-0.001-0.058-0.001-0.127-0.001-0.197 0-10.418 8.376-18.879 18.761-19.015h110.703c-6.246-13.231-13.995-24.599-23.24-34.56l0.078 0.085c-22.19-23.624-53.628-38.339-88.502-38.339-0.6 0-1.2 0.004-1.798 0.013l0.090-0.001c-0.199-0.001-0.435-0.002-0.671-0.002-36.796 0-70.066 15.095-93.956 39.43l-0.020 0.020c-23.126 25.524-37.28 59.551-37.28 96.884 0 37.942 14.621 72.47 38.535 98.256l-0.085-0.092c23.129 23.476 55.218 38.069 90.715 38.229h0.030c0.201 0.001 0.439 0.002 0.677 0.002 23.26 0 44.941-6.76 63.185-18.423l-0.472 0.282 21.358-14.872c2.96-2.105 6.649-3.365 10.632-3.365 5.176 0 9.854 2.128 13.209 5.556l0.003 0.003 62.074 62.952c3.426 3.511 5.539 8.317 5.539 13.616 0 0.614-0.028 1.221-0.084 1.821l0.006-0.077c-0.455 5.846-3.505 10.897-7.986 14.052l-0.060 0.040-36.133 25.356c-0.655 0.445-1.421 0.898-2.214 1.306l-0.127 0.059-36.474 18.334c-27.951 11.629-60.42 18.383-94.465 18.383-0.047 0-0.093 0-0.14 0h0.007zM669.062 553.838c-10.377-0.374-18.667-8.8-18.822-19.197v-68.282c0-0.044-0.001-0.096-0.001-0.147 0-10.435 8.404-18.906 18.812-19.016h49.65v-50.664c0-0.044-0.001-0.096-0.001-0.148 0-10.417 8.376-18.878 18.761-19.015h66.817c10.419 0.11 18.823 8.582 18.823 19.016 0 0.052 0 0.104-0.001 0.155v-0.008 50.566h49.591c10.398 0.137 18.774 8.598 18.774 19.016 0 0.052 0 0.104-0.001 0.156v-0.008 68.267c0.001 0.058 0.001 0.127 0.001 0.197 0 10.418-8.376 18.879-18.761 19.015h-49.506v50.81c0 0.044 0.001 0.096 0.001 0.147 0 10.435-8.404 18.906-18.812 19.016h-66.863c-10.419-0.11-18.823-8.582-18.823-19.016 0-0.052 0-0.104 0.001-0.155v0.008-50.664z" />
<glyph unicode="&#xe927;" glyph-name="heart" d="M1024 679.205c0 0.092 0 0.2 0 0.309 0 152.588-123.697 276.285-276.285 276.285-99.279 0-186.328-52.364-235.034-130.98l-0.682-1.181c-49.396 79.757-136.422 132.090-235.672 132.090-152.588 0-276.285-123.697-276.285-276.285 0-83.015 36.613-157.479 94.572-208.125l0.324-0.278 391.851-391.851c6.459-6.456 15.38-10.449 25.234-10.449s18.775 3.993 25.234 10.45l391.851 391.851c58.273 50.788 94.891 125.139 94.891 208.042 0 0.043 0 0.086 0 0.129v-0.007z" />
<glyph unicode="&#xe928;" glyph-name="heart-half-o" d="M458.947 88.454l-361.813 359.717c-20.472 18.762-38.45 39.699-53.735 62.587l-0.781 1.243c-26.836 42.916-42.751 95.049-42.751 150.9 0 3.076 0.048 6.14 0.144 9.193l-0.011-0.446c-0.071 2.339-0.112 5.090-0.112 7.851 0 152.561 123.675 276.236 276.236 276.236 0.056 0 0.113 0 0.169 0h-0.008c5.779-0.026 11.401-0.628 16.833-1.752l-0.547 0.095c0.715 0.006 1.56 0.010 2.406 0.010 86.526 0 164.344-37.281 218.268-96.656l0.218-0.243c54.218 59.496 131.562 97.11 217.71 98.544l0.256 0.003c0.146 0 0.318 0 0.491 0 160.851 0 291.334-130.021 292.081-290.697v-0.071c-0.095-87.949-38.221-166.974-98.815-221.53l-0.27-0.239-361.813-359.668c-15.699-9.018-34.479-14.418-54.503-14.628l-0.061-0.001c-1.052-0.062-2.282-0.097-3.521-0.097-18.096 0-34.434 7.531-46.049 19.629l-0.021 0.022zM512.878 151.845l357.474 355.279c47.719 40.753 78.113 100.584 79.284 167.54l0.003 0.201c-1.48 119.629-98.464 216.118-218.144 216.795h-0.065c-78.695-0.399-147.787-41.147-187.689-102.599l-0.532-0.874-28.818-47.64z" />
<glyph unicode="&#xe929;" glyph-name="heart-o" d="M508.538 68.754c-1.051-0.062-2.281-0.097-3.519-0.097-18.072 0-34.391 7.511-46.003 19.581l-0.020 0.021-361.813 359.717c-20.49 18.818-38.472 39.837-53.733 62.819l-0.783 1.254c-26.677 42.911-42.492 94.985-42.492 150.754 0 105.182 56.254 197.225 140.317 247.684l1.307 0.728c43.607 26.818 96.43 42.705 152.963 42.705 86.613 0 164.516-37.288 218.533-96.688l0.215-0.24c54.237 59.523 131.622 97.145 217.813 98.545l0.25 0.003c0.131 0 0.287 0 0.442 0 160.843 0 291.327-129.988 292.129-290.643v-0.076c-0.117-87.94-38.259-166.947-98.862-221.481l-0.271-0.24-361.813-359.717c-15.729-9.027-34.544-14.429-54.604-14.628h-0.058zM290.475 886.735c-0.263 0.001-0.575 0.002-0.886 0.002-41.558 0-80.555-10.961-114.26-30.149l1.141 0.598c-63.376-39.716-104.896-109.178-104.896-188.338 0-41.379 11.345-80.108 31.095-113.247l-0.561 1.016c10.985-20.045 26.032-36.588 44.138-48.989l0.479-0.31 361.813-359.717 361.813 359.717c47.682 40.704 78.067 100.459 79.284 167.337l0.003 0.208c-1.478 119.578-98.381 216.036-217.99 216.795h-0.073c-78.751-0.346-147.907-41.107-187.835-102.599l-0.532-0.874-29.745-49.298-29.745 49.298c-45.612 57.889-114.672 95.543-192.617 98.533l-0.48 0.015z" />
<glyph unicode="&#xe92a;" glyph-name="info-circle" d="M512 1024c-282.77 0-512-229.23-512-512s229.23-512 512-512c282.77 0 512 229.23 512 512v0c0 282.77-229.23 512-512 512v0zM580.267 273.067c0-37.703-30.564-68.267-68.267-68.267s-68.267 30.564-68.267 68.267v0 238.933c0 37.703 30.564 68.267 68.267 68.267s68.267-30.564 68.267-68.267v0zM512 642.048c-41.284 0-74.752 33.468-74.752 74.752s33.468 74.752 74.752 74.752c41.284 0 74.752-33.468 74.752-74.752v0c0-41.284-33.468-74.752-74.752-74.752v0z" />
<glyph unicode="&#xe92b;" glyph-name="minus-square" d="M837.388 48.762c-176.128 0-299.496 0-390.095 0h-129.219c-50.176 0-82.505 0-111.567 0-86.942 0.441-157.304 70.802-157.745 157.703v611.029c0.441 86.942 70.802 157.304 157.703 157.745h630.924c86.942-0.441 157.304-70.802 157.745-157.703v-611.029c-0.441-86.942-70.802-157.304-157.703-157.745h-0.042zM283.209 536.381c-21.76 0-39.4-17.64-39.4-39.4s17.64-39.4 39.4-39.4h492.105c21.76 0 39.4 17.64 39.4 39.4s-17.64 39.4-39.4 39.4v0z" />
<glyph unicode="&#xe92c;" glyph-name="minus-square-o" d="M765.757 457.582h-492.3c-0.413-0.016-0.898-0.024-1.386-0.024-21.76 0-39.4 17.64-39.4 39.4s17.64 39.4 39.4 39.4c0.487 0 0.973-0.009 1.456-0.026l-0.070 0.002h492.495c21.155-0.768 38.014-18.103 38.014-39.375s-16.859-38.607-37.944-39.373l-0.070-0.002zM802.767 975.238h-582.997c-99.709-0.304-180.456-81.052-180.76-180.731v-564.984c0.304-99.709 81.052-180.456 180.731-180.76h583.026c99.709 0.304 180.456 81.052 180.76 180.731v564.984c-0.304 99.709-81.052 180.456-180.731 180.76h-0.029zM915.749 229.522c0.002-0.247 0.003-0.539 0.003-0.832 0-61.94-50.212-112.152-112.152-112.152-0.292 0-0.585 0.001-0.877 0.003h-582.952c-0.247-0.002-0.539-0.003-0.832-0.003-61.94 0-112.152 50.212-112.152 112.152 0 0.292 0.001 0.585 0.003 0.877v-0.045 564.955c-0.002 0.247-0.003 0.539-0.003 0.832 0 61.94 50.212 112.152 112.152 112.152 0.292 0 0.585-0.001 0.877-0.003h582.952c0.247 0.002 0.539 0.003 0.832 0.003 61.94 0 112.152-50.212 112.152-112.152 0-0.292-0.001-0.585-0.003-0.877v0.045z" />
<glyph unicode="&#xe92d;" glyph-name="pause" d="M347.038 1024h-203.191c-33.865-0.917-60.968-28.588-60.968-62.589 0-0.488 0.006-0.974 0.017-1.459l-0.001 0.072v-896.049c-0.010-0.413-0.015-0.899-0.015-1.387 0-34.001 27.103-61.672 60.883-62.587l0.085-0.002h203.191c33.865 0.917 60.968 28.588 60.968 62.589 0 0.488-0.006 0.974-0.017 1.459l0.001-0.072v896c0.010 0.427 0.016 0.931 0.016 1.436 0 34.002-27.104 61.673-60.884 62.587l-0.085 0.002zM875.276 1024h-203.191c-33.865-0.917-60.968-28.588-60.968-62.589 0-0.488 0.006-0.974 0.017-1.459l-0.001 0.072v-896.049c-0.010-0.413-0.015-0.899-0.015-1.387 0-34.001 27.103-61.672 60.883-62.587l0.085-0.002h203.191c33.865 0.917 60.968 28.588 60.968 62.589 0 0.488-0.006 0.974-0.017 1.459l0.001-0.072v896c0.010 0.427 0.016 0.931 0.016 1.436 0 34.002-27.104 61.673-60.884 62.587l-0.085 0.002z" />
<glyph unicode="&#xe92e;" glyph-name="pinterest-square" d="M853.333 0h-682.667c-94.506 1.152-170.674 78.032-170.674 172.703 0 0.57 0.003 1.139 0.008 1.708l-0.001-0.087v675.352c-0.005 0.482-0.008 1.051-0.008 1.621 0 94.67 76.168 171.55 170.565 172.702l0.109 0.001h682.667c94.506-1.152 170.674-78.032 170.674-172.703 0-0.57-0.003-1.139-0.008-1.708l0.001 0.087v-675.352c0.005-0.482 0.008-1.051 0.008-1.621 0-94.67-76.168-171.55-170.565-172.702l-0.109-0.001zM462.019 725.577c-41.545 0-74.021-44.568-74.021-101.474-0.006-0.517-0.010-1.127-0.010-1.739 0-21.792 4.505-42.531 12.635-61.338l-0.386 1.003-11.459-49.396c-12.971-56.271-33.061-143.214-38.181-164.279-4.442-23.301-6.983-50.102-6.983-77.496 0-24.671 2.061-48.861 6.019-72.406l-0.353 2.544v-1.56c0.279-2.452 2.343-4.34 4.847-4.34 0.010 0 0.021 0 0.031 0h-0.002c0 0 0 0 0 0 1.684 0 3.181 0.798 4.135 2.036l0.009 0.012 1.122 1.414c28.919 36.047 52.15 78.166 67.438 123.922l0.828 2.859c4.876 17.31 26.77 106.886 27.014 107.764 19.823-29.585 53.123-48.799 90.911-48.799 1.005 0 2.007 0.014 3.006 0.041l-0.147-0.003c121.905 0 207.141 110.494 207.141 268.727-2.474 65.097-30.892 123.106-75.147 164.344l-0.141 0.13c-40.316 37.536-94.566 60.574-154.197 60.574-4.748 0-9.461-0.146-14.136-0.434l0.641 0.032c-171.837 0-274.334-124.538-274.334-244.98-0.567-4.924-0.891-10.631-0.891-16.413 0-57.314 31.795-107.202 78.709-132.988l0.786-0.396c1.938-0.865 4.196-1.382 6.571-1.414h0.012c6.448 0.153 11.734 4.935 12.669 11.143l0.009 0.072c0.829 3.072 2.048 8.29 3.413 13.751 1.658 6.827 3.413 13.8 4.389 17.749 0.848 2.089 1.34 4.511 1.34 7.049 0 5.911-2.67 11.199-6.869 14.723l-0.030 0.024c-15.574 19.511-24.99 44.534-24.99 71.756 0 1.86 0.044 3.709 0.131 5.547l-0.010-0.26c-0.006 0.573-0.010 1.249-0.010 1.926 0 49.919 19.313 95.327 50.874 129.16l-0.103-0.112c33.685 35.048 80.958 56.822 133.317 56.822 1.697 0 3.388-0.023 5.074-0.068l-0.249 0.005c4.665 0.543 10.069 0.852 15.546 0.852 37.904 0 72.345-14.826 97.84-38.995l-0.064 0.060c28.652-27.173 46.479-65.517 46.479-108.024 0-1.452-0.021-2.898-0.062-4.34l0.005 0.212c0-118.882-52.517-208.506-121.905-208.506-0.344-0.007-0.75-0.011-1.156-0.011-19.798 0-37.45 9.189-48.923 23.535l-0.096 0.125c-7.711 10.079-12.356 22.86-12.356 36.726 0 5.386 0.701 10.608 2.016 15.581l-0.095-0.424c4.145 17.944 9.752 36.425 15.165 54.321 9.302 24.823 15.938 53.621 18.631 83.555l0.094 1.291c0.237 1.889 0.373 4.074 0.373 6.291 0 13.475-5.001 25.783-13.248 35.167l0.051-0.060c-9.39 10.725-23.109 17.46-38.4 17.46-0.214 0-0.428-0.001-0.642-0.004h0.032z" />
<glyph unicode="&#xe92f;" glyph-name="play" d="M190.513 992.987c7.091 4.169 15.619 6.632 24.722 6.632s17.632-2.463 24.955-6.758l-0.233 0.126 589.141-428.081c14.879-8.697 24.716-24.594 24.716-42.789s-9.837-34.091-24.483-42.662l-0.234-0.126-589.141-428.081c-7.092-4.165-15.62-6.624-24.722-6.624-27.305 0-49.44 22.133-49.445 49.437v0 856.113c0.003 18.202 9.841 34.106 24.489 42.687l0.233 0.126z" />
<glyph unicode="&#xe930;" glyph-name="refresh" d="M934.619 433.981c-9.164 14.726-25.262 24.382-43.614 24.382-0.095 0-0.191 0-0.286-0.001h0.015c-2.618 0.371-5.641 0.583-8.714 0.583-32.168 0-58.91-23.228-64.37-53.826l-0.059-0.396c-24.056-142.706-145.282-250.522-292.255-253.557l-0.316-0.005h-4.876c-166.815 0.453-301.869 135.787-301.869 302.664 0 160.014 124.174 291.026 281.417 301.931l0.947 0.053v-97.524c-0.087-0.663-0.137-1.429-0.137-2.207 0-4.827 1.911-9.208 5.018-12.427l-0.005 0.005c4.876-14.629 24.381-14.629 34.133-9.752l214.552 160.914c4.876 0 4.876 4.876 9.752 9.752 4.876 14.629 4.876 29.257-9.752 34.133l-214.552 165.79c0 4.876-4.876 4.876-9.752 4.876-0.628 0.051-1.36 0.081-2.099 0.081-14.079 0-25.669-10.655-27.147-24.341l-0.011-0.121v-97.524c-216.127-6.907-391.569-172.24-414.31-383.32l-0.166-1.899c-1.993-15.616-3.131-33.682-3.131-52.015 0-221.815 166.544-404.731 381.407-430.526l2.066-0.202c14.629 0 34.133-4.876 48.762-4.876 215.652 0.135 394.577 157.206 428.758 363.181l0.347 2.533c1.371 4.942 2.159 10.616 2.159 16.475 0 13.944-4.464 26.845-12.041 37.352l0.13-0.189z" />
<glyph unicode="&#xe931;" glyph-name="search" d="M971.776 107.471v0l-229.181 238.933c55.081 68.606 88.402 156.733 88.402 252.643 0 123.082-54.876 233.348-141.497 307.664l-0.543 0.455c-69.546 57.518-159.64 92.409-257.884 92.409-122.797 0-232.861-54.51-307.317-140.653l-0.437-0.517c-58.497-69.347-94.048-159.711-94.048-258.378 0-122.973 55.224-233.047 142.225-306.777l0.585-0.483c70.103-56.823 160.111-91.588 258.204-92.646l0.234-0.002c83.582 0.912 161.063 26.265 225.849 69.23l-1.544-0.963 229.181-238.933c9.827-10.813 23.459-18.017 38.766-19.486l0.244-0.019h4.876c0.442-0.013 0.961-0.020 1.482-0.020 14.496 0 27.692 5.568 37.565 14.683l-0.038-0.034c10.813 9.827 18.017 23.459 19.486 38.766l0.019 0.244c0.933 3.29 1.47 7.070 1.47 10.974 0 13.337-6.263 25.212-16.008 32.843l-0.091 0.069zM430.519 317.147c-156.197 0-282.819 126.622-282.819 282.819s126.622 282.819 282.819 282.819c156.197 0 282.819-126.622 282.819-282.819v0c0-156.197-126.622-282.819-282.819-282.819v0z" />
<glyph unicode="&#xe932;" glyph-name="shopping-cart" d="M946.42 723.919l-682.667 63.683c-1.615 0.156-3.491 0.245-5.388 0.245s-3.773-0.089-5.625-0.263l0.237 0.018-27.307 132.194c-0.612 2.858-1.452 5.367-2.533 7.743l0.095-0.234c-4.393 10.908-13.33 19.189-24.401 22.602l-0.272 0.072-130.243 38.327c-3.198 0.969-6.873 1.527-10.679 1.527-21.041 0-38.099-17.057-38.099-38.099 0-17.236 11.445-31.798 27.15-36.502l0.27-0.069 108.642-31.939 130.682-629.711c2.587-18.63 18.41-32.817 37.547-32.817 0.051 0 0.103 0 0.154 0h561.875c20.925 0 37.888 16.963 37.888 37.888s-16.963 37.888-37.888 37.888v0h-530.968l-18.091 87.040h558.714c0.485-0.014 1.056-0.022 1.628-0.022 28.174 0 51.808 19.443 58.215 45.643l0.085 0.411 45.154 227.621c0.453 2.719 0.712 5.852 0.712 9.045 0 30.894-24.245 56.125-54.746 57.704l-0.141 0.006zM507.465 110.885c0-41.85-33.926-75.776-75.776-75.776s-75.776 33.926-75.776 75.776c0 41.85 33.926 75.776 75.776 75.776s75.776-33.926 75.776-75.776zM869.669 110.885c0-41.85-33.926-75.776-75.776-75.776s-75.776 33.926-75.776 75.776c0 41.85 33.926 75.776 75.776 75.776s75.776-33.926 75.776-75.776z" />
<glyph unicode="&#xe933;" glyph-name="sign-out" d="M960.61 551.010l-204.8 204.8c-9.26 8.816-21.819 14.239-35.646 14.239-28.573 0-51.736-23.163-51.736-51.736 0-13.826 5.424-26.386 14.259-35.667l-0.020 0.021 117.029-117.029h-526.629c-29.624 0-53.638-24.015-53.638-53.638s24.015-53.638 53.638-53.638h526.629l-121.905-112.152c-10.816-9.243-17.628-22.897-17.628-38.142 0-27.658 22.421-50.078 50.078-50.078 14.032 0 26.715 5.771 35.807 15.069l204.809 204.809c14.032 8.186 23.311 23.167 23.311 40.316 0 12.813-5.18 24.415-13.56 32.828l0.001-0.001zM477.867 121.905h-331.581v785.067h331.581c29.513 0.273 53.365 24.125 53.638 53.612v0.026c-0.694 27.145-22.864 48.886-50.112 48.886-1.241 0-2.471-0.045-3.689-0.134l0.163 0.010h-380.343c-29.513-0.273-53.365-24.125-53.638-53.612v-887.493c0.273-29.513 24.125-53.365 53.612-53.638h385.245c29.513 0.273 53.365 24.125 53.638 53.612v0.026c-4.215 29.435-28.498 52.044-58.359 53.632l-0.155 0.007z" />
<glyph unicode="&#xe934;" glyph-name="square" d="M827.636 975.238h-630.882c-87.020-0.249-157.496-70.725-157.745-157.721v-611.011c0.249-87.020 70.725-157.496 157.721-157.745h0.024c92.014 0.341 212.943 0 630.882 0 87.020 0.249 157.496 70.725 157.745 157.721v611.011c-0.249 87.020-70.725 157.496-157.721 157.745h-0.024z" />
<glyph unicode="&#xe935;" glyph-name="square-half" d="M802.767 975.238h-582.997c-99.709-0.304-180.456-81.052-180.76-180.731v-564.984c-0.011-0.722-0.017-1.575-0.017-2.429 0-87.712 64.205-160.429 148.182-173.715l0.998-0.13c9.021 0 18.091-4.535 31.646-4.535h582.949c99.709 0.304 180.456 81.052 180.76 180.731v565.033c-0.304 99.709-81.052 180.456-180.731 180.76h-0.029zM915.749 229.522c0.002-0.247 0.003-0.539 0.003-0.832 0-61.94-50.212-112.152-112.152-112.152-0.292 0-0.585 0.001-0.877 0.003h-262.050v790.918h262.144c0.233 0.002 0.508 0.003 0.783 0.003 61.94 0 112.152-50.212 112.152-112.152 0-0.292-0.001-0.584-0.003-0.876v0.045z" />
<glyph unicode="&#xe936;" glyph-name="square-o" d="M802.767 975.238h-582.997c-99.709-0.304-180.456-81.052-180.76-180.731v-564.984c0.304-99.709 81.052-180.456 180.731-180.76h583.026c99.709 0.304 180.456 81.052 180.76 180.731v564.984c-0.304 99.709-81.052 180.456-180.731 180.76h-0.029zM915.749 229.522c0.002-0.247 0.003-0.539 0.003-0.832 0-61.94-50.212-112.152-112.152-112.152-0.292 0-0.585 0.001-0.877 0.003h-582.952c-0.247-0.002-0.539-0.003-0.832-0.003-61.94 0-112.152 50.212-112.152 112.152 0 0.292 0.001 0.585 0.003 0.877v-0.045 564.955c-0.002 0.247-0.003 0.539-0.003 0.832 0 61.94 50.212 112.152 112.152 112.152 0.292 0 0.585-0.001 0.877-0.003h582.952c0.247 0.002 0.539 0.003 0.832 0.003 61.94 0 112.152-50.212 112.152-112.152 0-0.292-0.001-0.585-0.003-0.877v0.045z" />
<glyph unicode="&#xe937;" glyph-name="star" d="M975.141 555.398c12.934 12.608 20.956 30.202 20.956 49.669 0 34.799-25.634 63.61-59.050 68.581l-0.379 0.046-234.057 34.133c-10.175 1.502-18.603 7.834-22.984 16.55l-0.080 0.176-104.692 212.017c-11.573 23.103-35.064 38.686-62.196 38.686s-50.623-15.583-62.014-38.286l-0.182-0.4-104.692-212.163c-4.468-8.886-12.893-15.215-22.897-16.705l-0.168-0.021-234.057-34.133c-33.774-5.037-59.385-33.838-59.385-68.621 0-19.421 7.985-36.978 20.85-49.566l169.216-165.12c5.716-5.576 9.261-13.355 9.261-21.962 0-1.819-0.158-3.601-0.462-5.333l0.027 0.184-39.985-233.179c-0.702-3.665-1.104-7.881-1.104-12.191 0-16.846 6.137-32.259 16.297-44.124l-0.077 0.092c12.932-15.132 32.037-24.663 53.367-24.663 11.729 0 22.784 2.882 32.497 7.975l-0.385-0.184 209.384 110.104c4.147 2.163 9.057 3.432 14.263 3.432s10.116-1.269 14.437-3.514l-0.174 0.082 209.676-110.104c9.343-5.090 20.461-8.086 32.278-8.094h0.003c21.322 0.042 40.385 9.674 53.112 24.811l0.087 0.106c10.083 11.773 16.22 27.186 16.22 44.032 0 4.31-0.402 8.525-1.169 12.612l0.066-0.421-39.985 233.179c-0.279 1.553-0.439 3.341-0.439 5.166 0 8.602 3.547 16.376 9.258 21.939l0.007 0.006z" />
<glyph unicode="&#xe938;" glyph-name="star-half-o" d="M966.754 666.965c-14.010 14.694-32.917 24.608-54.093 27.12l-0.422 0.041-212.797 31.695-95.086 194.658c-12.803 23.147-33.247 40.746-57.864 49.6l-0.748 0.235c-9.681 3.049-20.814 4.806-32.357 4.806-16.149 0-31.494-3.438-45.344-9.623l0.707 0.282c-19.361-10.415-34.836-25.89-44.965-44.671l-0.286-0.58-95.086-194.706-212.797-31.695c-49.448-8.962-86.458-51.684-86.458-103.051 0-3.566 0.178-7.090 0.527-10.563l-0.036 0.438c3.62-21.269 13.288-39.833 27.15-54.361l-0.038 0.041 153.941-149.406-31.695-217.332c-0.597-4.263-0.938-9.187-0.938-14.192 0-25.548 8.882-49.021 23.727-67.5l-0.163 0.21c9.991-9.822 22.086-17.538 35.544-22.408l0.687-0.217c9.074-5.446 19.966-8.779 31.614-9.068l0.081-0.002h4.535c17.962 0.446 35.014 3.732 50.922 9.424l-1.136-0.355 185.637 99.816 31.695-18.091v4.535l167.497-86.016c12.824-8.263 28.42-13.29 45.168-13.603l0.083-0.001c55.868 0.406 101.002 45.789 101.002 101.715 0 5.578-0.449 11.052-1.313 16.386l0.078-0.585-36.23 212.797 153.941 149.406c15.461 18.837 24.833 43.186 24.833 69.725 0 29.044-11.226 55.467-29.576 75.165l0.061-0.066zM917.114 576.414l-158.476-153.941c-11.634-11.318-18.852-27.124-18.852-44.616 0-3.426 0.277-6.788 0.81-10.063l-0.048 0.358 36.23-217.332c0.234-1.503 0.368-3.235 0.368-5 0-6.512-1.824-12.598-4.988-17.776l0.085 0.15c-6.745-6.484-15.926-10.477-26.039-10.477-3.629 0-7.137 0.514-10.457 1.473l0.265-0.066-194.658 104.107h-4.584v674.621l4.535-9.070 95.086-194.658c9.379-17.714 25.444-30.833 44.747-36.112l0.505-0.118 217.332-31.695c7.091-1.201 13.278-4.438 18.102-9.080l-0.011 0.010c6.22-4.693 10.199-12.070 10.199-20.376 0-8.285-3.958-15.646-10.087-20.294l-0.063-0.046z" />
<glyph unicode="&#xe939;" glyph-name="star-o" d="M967.826 669.355c-16.528 15.79-37.705 26.845-61.274 30.912l-0.702 0.1-203.678 30.964-92.94 185.978c-12.756 25.216-34.682 44.237-61.285 52.893l-0.741 0.208c-10.017 2.967-21.526 4.674-33.433 4.674-16.677 0-32.571-3.349-47.048-9.41l0.804 0.299c-21.611-12.029-38.498-30.315-48.475-52.392l-0.287-0.709-92.891-181.541-203.63-31.013c-28.627-4.472-53.259-18.944-70.708-39.665l-0.143-0.174c-13.933-21.052-22.23-46.894-22.23-74.673 0-1.76 0.033-3.512 0.099-5.256l-0.008 0.251c4.167-24.271 15.222-45.448 31.055-62.022l-0.043 0.045 146.286-146.286-35.401-203.63c-0.598-4.635-0.939-9.996-0.939-15.436 0-27.382 8.641-52.745 23.344-73.513l-0.267 0.397c20.009-23.735 49.758-38.71 83.005-38.71 18.202 0 35.356 4.488 50.415 12.419l-0.592-0.284 181.492 97.524 181.492-97.524c13.32-8.338 29.504-13.284 46.843-13.284 0.675 0 1.348 0.007 2.019 0.022l-0.1-0.002c33.806 0.047 63.999 15.473 83.966 39.654l0.148 0.185c15.813 16.525 25.548 38.98 25.548 63.708 0 8.844-1.245 17.397-3.57 25.494l0.16-0.651-35.401 203.63 146.286 146.286c25.254 18.233 41.499 47.586 41.499 80.733 0 27.214-10.95 51.871-28.684 69.804l0.009-0.009zM901.413 580.803l-154.965-150.528c-14.125-12.647-22.973-30.938-22.973-51.295 0-3.771 0.304-7.471 0.888-11.076l-0.053 0.395 35.401-212.699c0.076-0.59 0.119-1.272 0.119-1.965 0-4.39-1.737-8.374-4.561-11.303l0.005 0.005c0-8.875-8.875-8.875-17.701-4.437l-190.171 101.815c-9.001 4.747-19.539 7.92-30.714 8.855l-0.299 0.020c-13.002-0.93-25.042-4.105-36.052-9.141l0.65 0.267-190.171-101.815c-8.875-4.437-17.701-4.437-22.138 4.437-2.819 2.924-4.556 6.908-4.556 11.298 0 0.693 0.043 1.375 0.127 2.045l-0.008-0.080 35.401 212.504c0.724 3.642 1.138 7.829 1.138 12.113 0 19.977-9.005 37.85-23.177 49.782l-0.099 0.081-150.723 150.723-8.972 8.777c0 8.875 0 13.263 4.437 13.263 0 4.437 4.437 4.437 13.263 8.875l212.504 31.013c23.656 3.768 43.119 18.844 52.919 39.412l0.183 0.427 92.989 194.706c0 4.437 4.437 4.437 8.875 8.875h17.701c4.702-0.444 8.408-4.167 8.823-8.837l0.003-0.037 92.989-190.171c9.983-20.994 29.445-36.071 52.699-39.785l0.403-0.053 212.504-31.013c3.5-0.495 6.557-2.098 8.873-4.436l0.001-0.001c13.263-13.263 13.263-22.235 4.437-31.013z" />
<glyph unicode="&#xe93a;" glyph-name="times" d="M633.71 512l365.129 365.129c14.672 15.409 23.699 36.31 23.699 59.32 0 47.546-38.543 86.089-86.089 86.089-23.009 0-43.911-9.027-59.355-23.733l0.035 0.033-365.129-365.129-365.056 365.129c-15.409 14.672-36.31 23.699-59.32 23.699-47.546 0-86.089-38.543-86.089-86.089 0-23.009 9.027-43.911 23.733-59.355l-0.033 0.035 365.056-365.129-365.056-365.056c-16.505-15.715-26.769-37.854-26.769-62.39 0-47.546 38.543-86.089 86.089-86.089 24.536 0 46.675 10.265 62.357 26.734l0.033 0.035 365.056 365.129 365.129-365.129c15.409-14.672 36.31-23.699 59.32-23.699 47.546 0 86.089 38.543 86.089 86.089 0 23.009-9.027 43.911-23.733 59.355l0.033-0.035z" />
<glyph unicode="&#xe93b;" glyph-name="times-sm" d="M615.034 512l312.954 312.954c13.777 13.417 22.324 32.147 22.324 52.873 0 40.746-33.031 73.777-73.777 73.777-20.738 0-39.478-8.556-52.881-22.332l-0.016-0.017-312.954-312.905-312.954 312.905c-13.202 12.56-31.105 20.287-50.812 20.287-40.746 0-73.777-33.031-73.777-73.777 0-19.707 7.727-37.609 20.316-50.843l-0.029 0.031 312.954-312.954-312.954-312.905c-12.56-13.202-20.287-31.105-20.287-50.812 0-40.746 33.031-73.777 73.777-73.777 19.707 0 37.609 7.727 50.843 20.316l-0.031-0.029 312.954 312.905 312.954-312.954c13.469-14.159 32.451-22.965 53.49-22.965 40.746 0 73.777 33.031 73.777 73.777 0 21.039-8.806 40.021-22.934 53.461l-0.031 0.029z" />
<glyph unicode="&#xe93c;" glyph-name="tumblr-square" d="M853.285 0h-682.667c-94.506 1.152-170.674 78.032-170.674 172.703 0 0.57 0.003 1.139 0.008 1.708l-0.001-0.087v675.352c-0.005 0.482-0.008 1.051-0.008 1.621 0 94.67 76.168 171.55 170.565 172.702l0.109 0.001h682.667c94.506-1.152 170.674-78.032 170.674-172.703 0-0.57-0.003-1.139-0.008-1.708l0.001 0.087v-675.352c0.005-0.482 0.008-1.051 0.008-1.621 0-94.67-76.168-171.55-170.565-172.702l-0.109-0.001zM393.46 596.358v0c0.245 0.034 0.528 0.054 0.816 0.054 1.557 0 2.98-0.575 4.068-1.523l-0.007 0.006c0.826-1.11 1.322-2.508 1.322-4.021 0-0.301-0.020-0.598-0.058-0.889l0.004 0.034c0-8.777 0-17.701 0-26.331q0.439-42.959 0.78-85.918v-0.975c0.439-52.712 0.926-107.276 1.609-160.914 0.922-25.072 10.816-47.67 26.546-64.831l-0.068 0.075c27.716-33.163 68.743-54.403 114.757-55.439l0.175-0.003c8.094-0.341 17.506-0.683 26.819-0.683 1.695-0.051 3.69-0.080 5.691-0.080 20.915 0 41.086 3.184 60.054 9.095l-1.428-0.383c23.176 7.583 42.529 15.589 61.158 24.837l-2.644-1.187c3.755 1.853 6.632 3.657 6.632 9.167v95.281c0.013 0.3 0.021 0.652 0.021 1.006 0 1.141-0.078 2.264-0.23 3.364l0.014-0.127v0.39c-4.535-2.292-9.021-4.876-13.361-7.168-7.537-4.465-16.572-9.036-25.907-13.044l-1.595-0.609c-13.436-5.752-29.053-9.205-45.446-9.459l-0.098-0.001c-0.023 0-0.050 0-0.077 0-11.625 0-22.762 2.092-33.054 5.919l0.656-0.214c-19.62 5.797-34.206 22.361-37.028 42.687l-0.031 0.272c-1.615 12.093-2.537 26.073-2.537 40.269 0 0.277 0 0.555 0.001 0.832v-0.043c-0.293 48.762-0.39 97.768-0.439 145.408v55.394h133.754c5.803 0 7.802 2.097 7.802 8.387-0.098 30.476-0.098 61.391-0.098 91.819 0 6.632-2.097 8.631-8.875 8.631h-132.876v29.94c-0.439 44.861-0.683 90.21-0.975 134.095v1.073c0.066 0.391 0.103 0.841 0.103 1.3 0 1.695-0.512 3.271-1.39 4.581l0.019-0.030c-1.014 0.865-2.339 1.391-3.788 1.391-0.194 0-0.387-0.009-0.576-0.028l0.024 0.002h-72.85c-5.169 0-6.68-2.731-7.509-7.461l-0.488-1.707c-2.536-14.629-5.169-30.184-8.728-45.056-7.774-32.558-23.086-60.797-44.023-83.829l0.138 0.154c-16.206-17.405-35.79-31.426-57.736-41.058l-1.12-0.438c-4.224-1.133-7.282-4.926-7.282-9.434 0-0.525 0.042-1.041 0.122-1.544l-0.007 0.055v-90.795h0.78c0.287 0.006 0.625 0.009 0.964 0.009 2.343 0 4.647-0.163 6.903-0.478l-0.26 0.030h50.42z" />
<glyph unicode="&#xe93d;" glyph-name="twitter-square" d="M853.333 0h-682.667c-94.506 1.152-170.674 78.032-170.674 172.703 0 0.57 0.003 1.139 0.008 1.708l-0.001-0.087v675.352c-0.005 0.482-0.008 1.051-0.008 1.621 0 94.67 76.168 171.55 170.565 172.702l0.109 0.001h682.667c94.506-1.152 170.674-78.032 170.674-172.703 0-0.57-0.003-1.139-0.008-1.708l0.001 0.087v-675.352c0.005-0.482 0.008-1.051 0.008-1.621 0-94.67-76.168-171.55-170.565-172.702l-0.109-0.001zM200.509 327.192v0c51.345-33.931 114.353-54.132 182.078-54.132 92.957 0 177.026 38.056 237.477 99.438l0.041 0.042c60.332 61.855 97.547 146.502 97.547 239.841 0 1.395-0.008 2.789-0.025 4.18l0.002-0.211c0 4.632 0 9.46-0.439 15.604 23.369 17.211 43.001 37.899 58.545 61.518l0.555 0.897c-19.857-9.092-42.893-15.791-67.046-18.936l-1.221-0.13c24.558 15.174 42.934 38.342 51.651 65.811l0.232 0.846c-21.52-13.297-46.589-23.442-73.34-28.995l-1.509-0.262c-21.418 22.895-51.813 37.164-85.541 37.164-20.478 0-39.728-5.26-56.472-14.502l0.603 0.305c-37.657-21.231-62.67-60.968-62.67-106.546 0-9.349 1.052-18.451 3.045-27.196l-0.157 0.818c-98.854 5.533-185.536 53.332-242.946 125.468l-0.522 0.679c-10.080-17.388-16.029-38.257-16.029-60.515 0-41.419 20.599-78.028 52.112-100.139l0.391-0.26c-19.669 0.463-37.988 5.831-53.906 14.923l0.56-0.295v-1.365c-0.001-0.196-0.002-0.428-0.002-0.66 0-57.381 40.062-105.405 93.742-117.628l0.809-0.155c-8.998-2.541-19.332-4.002-30.007-4.002-0.319 0-0.638 0.001-0.957 0.004h0.049c-0.606-0.013-1.32-0.021-2.036-0.021-7.205 0-14.23 0.771-20.997 2.236l0.651-0.118c15.188-47.912 58.539-82.325 110.161-83.963l0.187-0.005c-39.718-31.943-90.727-51.314-146.257-51.444h-0.029c-0.419-0.003-0.914-0.005-1.41-0.005-9.473 0-18.802 0.622-27.946 1.827l1.074-0.116z" />
</font>
</defs>
</svg>
